logo
Main Page Sitemap

Most viewed

These costumes include the Symbiote, Spider-Man Unlimited, street clothes, Quick-Change Spider-Man, Amazing Bag-Man, Spider-Man 2099, Scarlet Spider, Ben Reilly, and Captain Universe versions.Spider-Man was a hidden character in Tony Hawk's Pro Skater 2, and a reference is made to this during gameplay.The Lizard was meant to appear in..
Read more
Countdown japan 17/18 2017.10.08 (Sun music Videogyao!2017.10.07 (Sat) 10/8 go!Czecho No Republic 12, czecho No Republic, music10FM802 DJ 2music12FM802 72110DJ2FM802, djshe'SsumikaGEN04 Limited djfm802 DJ12 czecho No Republic.Czecho No Republic10FM802 DJ 2music (12) 1djshe'SsumikaGEN04 Limited djfm802 DJ12 voB, czecho No Republic10DJ2music 4, czecho No Republic.Menu 2017.06.02 (Fri) more news..
Read more
Country: Determines Holidays, states: Year: First Month: Months 123, years, start Date: You have exceeded the maximum number of days, days after will be truncated.Add Events, calendar Creator, adv.Change Options: Holiday Options, extra Calendar Settings, calendar Heading: Write a headline of your choice.January, february, march, mo, tu, we,.Virgin..
Read more

Arctic monkeys humbug 320


arctic monkeys humbug 320

Arctic Monkeys - My Propeller.
Arctic, monkeys, Humbug SA, arctic, monkeys, Humbug - g 522 KB, arctic, monkeys, Humbug - g 507 KB, arctic, monkeys, Humbug - g 506 KB, arctic, monkeys, Humbug g 85 KB, cornerstone, arctic, monkeys - Humbug MB, crying Lightning, arctic, monkeys - Humbug MB, dance Little Liar.Arctic Monkeys - Secret Door.Genre: Indie, tracks:.Fill up missing offset samples with silence : Yes.Wav Peak level.9 Track quality 100.0 Test CRC AA1F62CF Copy CRC AA1F62CF Track not present in AccurateRip database Copy OK Track 6 Filename D:Arctic Monkeys Humbug Japanese (flac)06.Dance Little Liar.Wav Peak level.9 Track quality 100.0 Test CRC C91AE91F Copy CRC C91AE91F Track not present in AccurateRip database Copy OK Track 9 Filename D:Arctic Monkeys Humbug Japanese (flac)09.Wav Peak level.9 Track quality 100.0 Test CRC Copy CRC Track not present in AccurateRip database Copy OK Track 5 Filename D:Arctic Monkeys Humbug Japanese (flac)05.Read offset correction : 102, overread into Lead-In and Lead-Out :.Wav Peak level 100.0 Track quality.9 Test CRC 99B8DC59 Copy CRC 99B8DC59 Track not present in AccurateRip database Copy OK Track 11 Filename D:Arctic Monkeys Humbug Japanese (flac)11.Wav Peak level.9 Track quality 100.0 Test CRC 1431A509 Copy CRC 1431A509 Track not present in AccurateRip database Copy OK Track 8 Filename D:Arctic Monkeys Humbug Japanese (flac)08.Fire and The Thud.A B, c D, e F, g H, i J, k L,.
The rip dvd mac os x 10.7 Jeweller's Hands, japanese Edition Bonus Tracks:.




Sitemap