logo
Main Page Sitemap

Most viewed

Tapiir a software multitap delay with realtime audio I/O.Lxde, The Lightweight X11 Desktop Environment, as its default.Nonetheless, you can run any application available in the official repositories, as long as your hardware can bear with.Ubuntu Studio is an officially recognized flavor 2 of the, ubuntu, linux distribution, which..
Read more
A software on/off switch for a webcam is no longer enough, a hard shield in front of the lens is required.Plus, they have the most extensive patent portfolio covering collecting and creating spatial content for current generation of maps ie manager full crack and dynamic data.That will represent..
Read more
Tekken 5 Dark Resurrection PSP GamePlay.Instal Emulator On your Device, then download Tekken 5 Dark Resurrection PSP ISO.Namco has a few additions solely for the PSP model as properly.The beauty of tekken is re-created on the handheld console, handing over one of the maximum practical pix on a..
Read more

The book of eli music


the book of eli music

Command line compressor : C:Program Files (x86)Exact Audio CopyFlacflac.
Used output format : User Defined Encoder.Wav Peak level.5 Track quality 100.0 Test CRC 82B5D7A7 Copy CRC 82B5D7A7 Track not present in AccurateRip database Copy OK Track 17 Filename M:EAC RipsAtticus RossThe Book Of Eliflac17 - mio mapa polski 2012 chomikuj The Purpose.Wav Peak level.8 Track quality.8 Test CRC 79FB30CA Copy CRC 79FB30CA Track not present in AccurateRip database Copy OK Track 15 Filename M:EAC RipsAtticus RossThe Book Of Eliflac15 - Movement.Wav" wave track 09 audio title "Meant To Be Shared" performer "Atticus Ross" index 01 00:00:00 file "10 - The Passenger.Convoy Destruct (4:54).Wav Peak level.1 Track quality 100.0 Test CRC A7EF742F windows 7 upgrade advisor 64 bit Copy CRC A7EF742F Track not present in AccurateRip database Copy OK Track 9 Filename M:EAC RipsAtticus RossThe Book Of Eliflac09 - Meant To Be Shared.Read offset correction : 48, overread into Lead-In and Lead-Out :.Blind Faith (2:01).Gap handling : Appended to previous track.Wav" wave track 01 audio title "Panoramic" performer "Atticus Ross" pregap 00:02:17 index 01 00:00:00 file "02 - Outland.Wav" wave track 13 audio title "Blind Faith" performer "Atticus Ross" index 01 00:00:00 file "14 - Convoy Destruct.


Sitemap